View unanswered posts | View active topics It is currently Wed Apr 16, 2014 9:02 am



This topic is locked, you cannot edit posts or make further replies.  [ 4 posts ] 
 TS a MPEG playback problem 
Author Message

Joined: Sat Feb 18, 2012 4:19 pm
Posts: 2
I am disappointed with their new players Essential.
I needed to play TS files from the satellite receiver TechniSat. Playback does not work.
I converted to MPEG, playback does not work.
Respectively, yes, but the video is constantly sputtering, 4s ok, 1s stay, just video stay, not sound. Here's the details of converted MPEG from TS file:

Formát : MPEG-PS
Velikost souboru : 609 MiB
Duration/String : 27mn 7s
Celkový BitRate : 3 142 Kbps

Video
ID : 224 (0xE0)
Formát : MPEG Video
Format_Version : Version 2
Format_Profile : Main@Main
Format_Settings_BVOP/String : Ano
Format_Settings_GOP : M=3, N=21
Duration/String : 27mn 7s
Bit rate : 2 888 Kbps
BitRate_Maximum/String : 6 000 Kbps
Šířka : 720pixely
Výška : 576pixely
Poměr stran : 4:3
Frame rate : 25,000 fps
Standard : PAL
ColorSpace : YUV
ChromaSubsampling : 4:2:0
BitDepth/String : 8 bits
ScanType/String : Interlaced
ScanOrder/String : Top Field First
Bits/(Pixel*Frame) : 0.279
StreamSize/String : 560 MiB (92%)

Audio
ID : 192 (0xC0)
Formát : MPEG Audio
Format_Version : Version 1
Format_Profile : Layer 2
Duration/String : 27mn 6s
Bit rate : 192 Kbps
Kanál(y) : 2 kanály
Sampling rate : 48,0 KHz
StreamSize/String : 37,2 MiB (6%)


This is info from original TS file:
Format : MPEG-TS
Format profile : No PAT/PMT
File size : 2,00 GiB
Duration : 1h 51mn
Overall bit rate : 2 565 Kbps

Video
ID : 2960 (0xB90)
Format : MPEG Video
Format version : Version 2
Format profile : Main@Main
Format settings, BVOP : Ano
Format settings, GOP : M=3, N=12
Duration : 1h 38mn
Bit rate : 2 050 Kbps
Maximum bit rate : 8 000 Kbps
Width : 640pixely
Height : 576pixely
Display aspect ratio : 16:9
Frame rate : 25,000 fps
Color space : YUV
Chroma subsampling : 4:2:0
Bit depth : 8 bits
Scan type : Interlaced
Scan order : Top Field First
Bits/(Pixel*Frame) : 0.222
Stream size : 1,41 GiB (71%)

Audio #1
ID : 2961 (0xB91)
Format : MPEG Audio
Format version : Version 1
Format profile : Layer 2
Duration : 1h 51mn
Bit rate : 192 Kbps
Channel(s) : 2 kanály
Sampling rate : 48,0 KHz
Delay relative to video : -807ms
Stream size : 153 MiB (7%)

Audio #2
ID : 2962 (0xB92)
Format : MPEG Audio
Format version : Version 1
Format profile : Layer 2
Duration : 1h 51mn
Bit rate : 192 Kbps
Channel(s) : 2 kanály
Sampling rate : 48,0 KHz
Delay relative to video : -800ms
Stream size : 153 MiB (7%)


Next problem is Mov from camera ....

Hm, i buy PlayOn because want play TS files from Technisat Satellite receiver and MOV from camera Olympus, without stupid conversion ..... hahahahaha

I MUST MADE CONVERSION. GO FIGURE!!!

Im really Angry.

Now what? As long as I chose when I took over?

I hope you will help me, I have a lot of recordings in this format and it is your player can. But not.
If this does not work, I have no reason to have the unit and return it back to you.

Jiri


Sat Feb 18, 2012 6:16 pm
Profile

Joined: Thu Mar 27, 2008 6:05 am
Posts: 2430
Sorry for any inconvenience. But we definitely need to exactly know what is the video codec inside those video containers. The format might be supported but the codec probably may not, that is why it cannot play and the same goes for your camera video.

Can you use the software "mediainfo" to show the real media details. You can download the software from the link below and after installing run the application and select "tree" as your viewing preference. You can drag and drop the media file there and copy the shown information and send it to us or post it here.

http://mediainfo.sourceforge.net/en/Download

_________________
Best Regards,

AC Ryan Asia Pacific
60 Kaki Bukit Place || 01-12 Eunos Techpark || Singapore 415979
T +65 67483218 ||
Email: asia@acryan.com
Follow Us:
Twitter || Facebook


Tue Mar 06, 2012 7:51 am
Profile

Joined: Wed Dec 22, 2010 7:54 pm
Posts: 475
I think all the info needed was in the post. Jiri, have you tried to rename the TS file to MPG? Sometimes that does the trick. What software did you use for the conversion? For MPEG-TS files I have used ProjectX lots of times. The resulting PS files (MPG) played fine. Conversion is fast, like remuxing. Your converted file is a bit peculiar because it has higher resolution (720x576 vs. 640x576) and bitrate (2888 vs. 2050). Your source really is 640x576? Usually it is 720x576 or 704x576 for PAL, but I've seen some eastern european channels transmitting in lower resolutions.


Tue Mar 06, 2012 8:11 am
Profile

Joined: Wed Dec 22, 2010 7:54 pm
Posts: 475
Oh by the way, look here for useful software:
http://www.videohelp.com/tools/sections/video-de-multiplexers
http://www.videohelp.com/tools/sections/video-editors-mpg-dvd


Tue Mar 06, 2012 8:15 am
Profile
Display posts from previous:  Sort by  
This topic is locked, you cannot edit posts or make further replies.   [ 4 posts ] 

Who is online

Users browsing this forum: No registered users and 2 guests


You cannot post new topics in this forum
You cannot reply to topics in this forum
You cannot edit your posts in this forum
You cannot delete your posts in this forum
You cannot post attachments in this forum

Search for:
Jump to:  
cron
Powered by: phpBB | Innitial forum Design by: STSoftware | Modified by: AC Ryan.